<?xml version="1.0" standalone="no"?>
<!DOCTYPE svg PUBLIC "-//W3C//DTD SVG 1.1//EN" "http://www.w3.org/Graphics/SVG/1.1/DTD/svg11.dtd" >
<svg xmlns="http://www.w3.org/2000/svg">
<metadata>Generated by IcoMoon</metadata>
<defs>
<font id="envira-icons" horiz-adv-x="1024">
<font-face units-per-em="1024" ascent="870.850439882698" descent="-153.14956011730206" />
<missing-glyph horiz-adv-x="1024" />
<glyph unicode="&#x20;" horiz-adv-x="0" d="" />
<glyph unicode="&#xe801;" glyph-name="thumb" d="M0-167.007v256.25h256.25v-256.25h-256.25zM0 217.369v256.25h256.25v-256.25h-256.25zM0 601.744v256.25h256.25v-256.25h-256.25zM384.375-167.007v256.25h256.25v-256.25h-256.25zM384.375 217.369v256.25h256.25v-256.25h-256.25zM384.375 601.744v256.25h256.25v-256.25h-256.25zM768.751-167.007v256.25h256.25v-256.25h-256.25zM768.751 217.369v256.25h256.25v-256.25h-256.25zM768.751 601.744v256.25h256.25v-256.25h-256.25z" />
<glyph unicode="&#xe900;" d="M515.2 688c-182.4 0-332.8-150.4-332.8-332.8 0-64 16-124.8 51.2-176l6.4-12.8-32-121.6 124.8 32 12.8-6.4c51.2-28.8 108.8-44.8 169.6-44.8v0c182.4 0 332.8 150.4 332.8 332.8 0 89.6-35.2 172.8-96 233.6-67.2 60.8-150.4 96-236.8 96zM710.4 214.4c-9.6-22.4-48-44.8-67.2-48-16-3.2-38.4-3.2-64 3.2-16 3.2-32 9.6-57.6 22.4-99.2 44.8-166.4 144-169.6 150.4-6.4 6.4-41.6 54.4-41.6 102.4s25.6 73.6 35.2 83.2c9.6 9.6 19.2 12.8 25.6 12.8s12.8 0 19.2 0c6.4 0 12.8 3.2 22.4-16s28.8-70.4 32-73.6c3.2-6.4 3.2-9.6 0-16s-6.4-9.6-9.6-16c-6.4-6.4-9.6-12.8-16-16-6.4-6.4-9.6-9.6-3.2-19.2s25.6-41.6 54.4-70.4c38.4-35.2 70.4-44.8 80-48 9.6-6.4 16-3.2 22.4 3.2s25.6 28.8 32 38.4c6.4 9.6 12.8 9.6 22.4 6.4s57.6-28.8 67.2-32c9.6-6.4 16-6.4 19.2-12.8 3.2-12.8 3.2-32-3.2-54.4z" />
<glyph unicode="&#xe901;" d="M832 864h-640c-105.6 0-192-86.4-192-192v-640c0-105.6 86.4-192 192-192h640c105.6 0 192 86.4 192 192v640c0 105.6-86.4 192-192 192zM515.2-44.8c0 0 0 0 0 0v0c-67.2 0-131.2 16-192 48l-211.2-54.4 57.6 208c-35.2 60.8-54.4 128-54.4 198.4 0 220.8 179.2 400 400 400 105.6 0 208-41.6 281.6-118.4 76.8-76.8 118.4-176 118.4-281.6-3.2-220.8-182.4-400-400-400z" />
<glyph unicode="&#xe903;" glyph-name="close" d="M512.5 395.719l447.925 447.925c14.35 14.35 36.9 14.35 50.225 0 14.35-13.325 14.35-35.875 0-50.225l-447.925-447.925 447.925-447.925c14.35-14.35 14.35-36.9 0-50.225-13.325-14.35-35.875-14.35-50.225 0l-447.925 447.925-447.925-447.925c-14.35-14.35-36.9-14.35-50.225 0-14.35 13.325-14.35 35.875 0 50.225l447.925 447.925-447.925 447.925c-14.35 14.35-14.35 36.9 0 50.225s35.875 14.35 50.225 0l447.925-447.925z" />
<glyph unicode="&#xe904;" glyph-name="email" d="M833.326 857.994h-640.626c-106.6 0-192.7-86.1-192.7-191.675v-640.626c0-106.6 86.1-192.7 192.7-192.7h640.626c105.575 0 191.675 86.1 191.675 192.7v640.626c0 105.575-86.1 191.675-191.675 191.675zM853.826 153.818c0-35.875-28.7-64.575-63.55-64.575h-555.551c-34.85 0-63.55 28.7-63.55 64.575v290.075c15.375-11.275 26.65-25.625 42.025-35.875 62.525-42.025 128.125-80.975 189.625-123 31.775-22.55 70.725-46.125 109.675-46.125s77.9 23.575 109.675 46.125c61.5 42.025 126.075 80.975 189.625 123 15.375 9.225 29.725 22.55 42.025 35.875v-290.075zM853.826 536.144c0-33.825-38.95-73.8-64.575-91.225-59.45-38.95-118.9-76.875-178.35-115.825-25.625-17.425-67.65-47.15-98.4-47.15s-72.775 29.725-98.4 47.15c-58.425 38.95-118.9 74.825-178.35 114.8-27.675 18.45-64.575 57.4-64.575 94.3 0 34.85 28.7 63.55 63.55 63.55h555.551c36.9 0 63.55-29.725 63.55-65.6z" />
<glyph unicode="&#xe905;" glyph-name="facebook" d="M833.326 857.994h-640.626c-106.6 0-192.7-86.1-192.7-191.675v-640.626c0-106.6 86.1-192.7 192.7-192.7h354.65v396.675h-133.25v154.775h133.25v114.8c0 132.225 80.975 203.975 199.875 203.975 55.35 0 104.55-4.1 117.875-6.15v-138.375h-80.975c-64.575 0-76.875-30.75-76.875-74.825v-99.425h152.725l-19.475-154.775h-133.25v-396.675h126.075c105.575 0 191.675 86.1 191.675 192.7v640.626c0 105.575-86.1 191.675-191.675 191.675z" />
<glyph unicode="&#xe906;" glyph-name="fullscreen" d="M960.426-104.482v258.3h64.575v-321.85h-320.825v63.55h256.25zM0 152.793h64.575v-255.225h256.25v-64.575h-320.825v319.8zM192.7 729.869h704.176v-768.751h-768.751v768.751h64.575zM192.7 665.294v-639.601h640.626v639.601h-640.626zM0 793.419v64.575h319.8v-64.575h-255.225v-255.225h-64.575v255.225zM961.451 857.994h63.55v-319.8h-63.55v255.225h-257.275v64.575h257.275z" />
<glyph unicode="&#xe907;" glyph-name="google_plus" d="M611.926 339.344c0-145.55-98.4-250.1-246-250.1-141.45 0-256.25 114.8-256.25 256.25s114.8 256.25 256.25 256.25c69.7 0 127.1-25.625 172.2-66.625l-69.7-67.65c-19.475 18.45-52.275 39.975-102.5 39.975-87.125 0-158.875-72.775-158.875-161.95s71.75-160.925 158.875-160.925c101.475 0 140.425 71.75 145.55 109.675h-145.55v88.15h241.9c2.050-13.325 4.1-26.65 4.1-43.050zM842.551 308.594v-72.775h-73.8v72.775h-73.8v73.8h73.8v72.775h73.8v-72.775h72.775v-73.8h-72.775zM1025.001 666.319c0 105.575-86.1 191.675-191.675 191.675h-640.626c-106.6 0-192.7-86.1-192.7-191.675v-640.626c0-106.6 86.1-192.7 192.7-192.7h640.626c105.575 0 191.675 86.1 191.675 192.7v640.626z" />
<glyph unicode="&#xe908;" glyph-name="next" d="M785.151 345.494c1.025 9.225-3.075 19.475-10.25 26.65l-475.6 475.6c-13.325 13.325-35.875 13.325-49.2 0s-13.325-35.875 0-49.2l453.050-453.050-453.050-453.050c-13.325-13.325-13.325-35.875 0-49.2s35.875-13.325 49.2 0l475.6 475.6c7.175 7.175 11.275 17.425 10.25 26.65z" />
<glyph unicode="&#xe909;" glyph-name="pause" d="M861.001 857.994c35.875 0 64.575-28.7 64.575-63.55v-897.901c0-34.85-28.7-63.55-64.575-63.55h-128.125c-34.85 0-63.55 28.7-63.55 63.55v897.901c0 34.85 28.7 63.55 63.55 63.55h128.125zM292.125 857.994c34.85 0 63.55-28.7 63.55-63.55v-897.901c0-34.85-28.7-63.55-63.55-63.55h-128.125c-35.875 0-64.575 28.7-64.575 63.55v897.901c0 34.85 28.7 63.55 64.575 63.55h128.125z" />
<glyph unicode="&#xe90a;" glyph-name="pinterest" d="M833.326 857.994h-640.626c-106.6 0-192.7-86.1-192.7-191.675v-640.626c0-106.6 86.1-192.7 192.7-192.7h121.975c-4.1 36.9-10.25 107.625 4.1 169.125 0 0 10.25 42.025 65.6 276.75-16.4 32.8-16.4 80.975-16.4 80.975 0 74.825 44.075 130.175 97.375 130.175 46.125 0 68.675-34.85 68.675-75.85 0-46.125-29.725-115.825-45.1-179.375-12.3-54.325 27.675-98.4 79.95-98.4 96.35 0 160.925 124.025 160.925 269.575 0 111.725-74.825 194.75-210.125 194.75-153.75 0-250.1-114.8-250.1-242.925 0-44.075 13.325-74.825 33.825-99.425 9.225-11.275 10.25-15.375 7.175-28.7-3.075-9.225-8.2-31.775-10.25-39.975-3.075-13.325-14.35-17.425-25.625-13.325-70.725 29.725-103.525 106.6-103.525 193.725 0 144.525 120.95 316.725 361.825 316.725 193.725 0 320.825-139.4 320.825-290.075 0-198.85-110.7-347.475-273.675-347.475-54.325 0-105.575 29.725-124.025 63.55-28.7-116.85-34.85-139.4-34.85-139.4-14.35-55.35-50.225-108.65-71.75-140.425h483.8c105.575 0 191.675 86.1 191.675 192.7v640.626c0 105.575-86.1 191.675-191.675 191.675z" />
<glyph unicode="&#xe90b;" glyph-name="play" d="M925.576 345.494l-925.576-512.5v1025.001l925.576-512.5z" />
<glyph unicode="&#xe90c;" glyph-name="previous" d="M239.85 345.494c0 9.225 3.075 19.475 10.25 26.65l475.6 475.6c13.325 13.325 35.875 13.325 49.2 0s13.325-35.875 0-49.2l-453.050-453.050 453.050-453.050c13.325-13.325 13.325-35.875 0-49.2s-35.875-13.325-49.2 0l-475.6 475.6c-7.175 7.175-10.25 17.425-10.25 26.65z" />
<glyph unicode="&#xe90d;" glyph-name="twitter" d="M853.826 536.144c-18.45-28.7-42.025-53.3-69.7-72.775 1.025-6.15 1.025-11.275 1.025-17.425 0-185.525-141.45-399.75-399.75-399.75-78.925 0-152.725 23.575-214.225 63.55 10.25-2.050 21.525-2.050 32.8-2.050 66.625 0 126.075 22.55 174.25 59.45-61.5 1.025-112.75 42.025-130.175 97.375 8.2-1.025 17.425-2.050 25.625-2.050 12.3 0 21.525 2.050 33.825 5.125-63.55 12.3-114.8 69.7-114.8 137.35 0 1.025 0 1.025 0 1.025 20.5-9.225 43.050-16.4 66.625-17.425-37.925 25.625-61.5 68.675-61.5 116.85 0 25.625 8.2 50.225 19.475 70.725 69.7-85.075 173.225-140.425 290.075-146.575-3.075 10.25-3.075 21.525-3.075 31.775 0 77.9 62.525 140.425 139.4 140.425 39.975 0 76.875-16.4 102.5-44.075 31.775 6.15 61.5 18.45 89.175 33.825-10.25-32.8-32.8-60.475-61.5-77.9 28.7 4.1 55.35 11.275 79.95 22.55zM1025.001 666.319c0 105.575-86.1 191.675-191.675 191.675h-640.626c-106.6 0-192.7-86.1-192.7-191.675v-640.626c0-106.6 86.1-192.7 192.7-192.7h640.626c105.575 0 191.675 86.1 191.675 192.7v640.626z" />
<glyph unicode="&#xe90e;" glyph-name="zoom_plus" d="M692.901 54.393l198.85-198.85c29.725-30.75 79.95-30.75 110.7 0s30.75 80.975 0 110.7l-198.85 198.85c50.225 71.75 78.925 157.85 78.925 251.125 0 243.95-197.825 441.775-440.75 441.775s-441.775-197.825-441.775-441.775c0-242.925 197.825-440.75 441.775-440.75 93.275 0 180.4 28.7 251.125 78.925zM441.775 704.244c157.85 0 287-129.15 287-288.025s-129.15-287-287-287c-158.875 0-288.025 129.15-288.025 287s129.15 288.025 288.025 288.025zM398.725 459.269v113.775c0 23.575 19.475 43.050 43.050 43.050s42.025-19.475 42.025-43.050v-113.775h113.775c23.575 0 43.050-19.475 43.050-43.050s-19.475-42.025-43.050-42.025h-113.775v-113.775c0-23.575-18.45-43.050-42.025-43.050s-43.050 19.475-43.050 43.050v113.775h-113.775c-23.575 0-43.050 18.45-43.050 42.025s19.475 43.050 43.050 43.050h113.775z" />
<glyph unicode="&#xe90f;" glyph-name="zoom" d="M692.901 54.393l198.85-198.85c29.725-30.75 79.95-30.75 110.7 0s30.75 80.975 0 110.7l-198.85 198.85c50.225 71.75 78.925 157.85 78.925 251.125 0 243.95-197.825 441.775-440.75 441.775s-441.775-197.825-441.775-441.775c0-242.925 197.825-440.75 441.775-440.75 93.275 0 180.4 28.7 251.125 78.925zM441.775 704.244c157.85 0 287-129.15 287-288.025s-129.15-287-287-287c-158.875 0-288.025 129.15-288.025 287s129.15 288.025 288.025 288.025z" />
<glyph unicode="&#xe910;" glyph-name="download" d="M788.226-11.207c0-21.525-17.425-38.95-38.95-38.95s-39.975 17.425-39.975 38.95c0 21.525 18.45 39.975 39.975 39.975s38.95-18.45 38.95-39.975zM946.076-11.207c0-21.525-17.425-38.95-38.95-38.95s-39.975 17.425-39.975 38.95c0 21.525 18.45 39.975 39.975 39.975s38.95-18.45 38.95-39.975zM1025.001 127.168c0 32.8-26.65 59.45-59.45 59.45h-284.95l-84.050-84.050c-22.55-22.55-52.275-34.85-84.050-34.85s-60.475 12.3-84.050 34.85l-83.025 84.050h-285.975c-32.8 0-59.45-26.65-59.45-59.45v-196.8c0-32.8 26.65-59.45 59.45-59.45h906.101c32.8 0 59.45 26.65 59.45 59.45v196.8zM825.126 477.719c-6.15 14.35-20.5 23.575-36.9 23.575h-157.85v276.75c0 21.525-17.425 38.95-38.95 38.95h-157.85c-21.525 0-38.95-17.425-38.95-38.95v-276.75h-157.85c-16.4 0-30.75-9.225-36.9-23.575s-3.075-31.775 9.225-43.050l275.725-275.725c7.175-8.2 17.425-12.3 27.675-12.3s20.5 4.1 27.675 12.3l275.725 275.725c12.3 11.275 15.375 28.7 9.225 43.050z" />
<glyph unicode="&#xe911;" glyph-name="print" d="M236.775-49.132v157.85h551.451v-157.85h-551.451zM236.775 345.494v394.625h393.6v-98.4c0-32.8 26.65-59.45 59.45-59.45h98.4v-236.775h-551.451zM946.076 306.544c0-21.525-17.425-39.975-38.95-39.975s-39.975 18.45-39.975 39.975c0 21.525 18.45 38.95 39.975 38.95s38.95-17.425 38.95-38.95zM1025.001 306.544c0 64.575-53.3 117.875-117.875 117.875h-39.975v157.85c0 32.8-18.45 77.9-42.025 100.45l-93.275 94.3c-23.575 23.575-68.675 42.025-101.475 42.025h-413.075c-32.8 0-59.45-26.65-59.45-59.45v-335.175h-39.975c-64.575 0-117.875-53.3-117.875-117.875v-256.25c0-11.275 9.225-20.5 19.475-20.5h138.375v-98.4c0-32.8 26.65-59.45 59.45-59.45h591.426c31.775 0 58.425 26.65 58.425 59.45v98.4h138.375c10.25 0 19.475 9.225 19.475 20.5v256.25z" />
<glyph unicode="&#xeac9;" glyph-name="linkedin" d="M928.907 890.025h-832.813c-52.852 0-96.094-43.242-96.094-96.094v-832.813c0-52.852 43.242-96.094 96.094-96.094h832.813c52.852 0 96.094 43.242 96.094 96.094v832.813c0 52.852-43.242 96.094-96.094 96.094zM384.375 57.212h-128.125v448.438h128.125v-448.438zM320.313 569.713c-35.435 0-64.063 28.628-64.063 64.063s28.628 64.063 64.063 64.063c35.435 0 64.063-28.628 64.063-64.063s-28.628-64.063-64.063-64.063zM832.813 57.212h-128.125v256.25c0 35.435-28.628 64.063-64.063 64.063s-64.063-28.628-64.063-64.063v-256.25h-128.125v448.438h128.125v-79.478c26.426 36.235 66.865 79.478 112.109 79.478 79.678 0 144.141-71.67 144.141-160.156v-288.282z" />
</font>
</defs>
</svg>
